Israbox Flac

FILE "07 Joan Armatrading - Mama Mercy. Artist: The Stepkids Title Of Album: The Stepkids Year Of Release: September 27, 2011 Label: Stones Throw Records Genre: Indie, Funk, Psych-Soul Quality: flac (tracks) Bitrate: lossless Total Time: 31 min 05 sec Total Size. IsraBox - Music is Life! пятница, 9 апреля 2010 г. Download or purchase CDs of the entire Live Bruce Springsteen catalog. The musical blog IsraBox is a huge collection of musical albums, discographies of groups and artists. Artist: Various Artists Title: Soul Jazz Records Presents Hustle! Reggae Disco - Kingston, London, New York Year Of Release: 2017 Label: Soul Jazz Records [SJR CD368] Genre: Reggae, Disco, Soul Jazz Quality: 320 kbps / FLAC (tracks+cue, log) Total Time: 1:16:30 Total Size: 175 mb / 485 mb #Re-Up. August 2016 EAC extraction logfile from 18. com is up and dont blocked for our system and other users of the Internet. Alternatively, find out what’s trending across all of Reddit on r/popular. Artist: Jennifer Nettles Title Of Album: That Girl Year Of Release: 2014 Label: Mercury Nashville Genre: Country, Pop, Singer-Songwriter Quality: 320 / FLAC Total Time: 41:23 min Total Size: 102 / 256 MB. Total Size: 4. 1&2] (2010. Artist: Jon Secada Title Of Album: Heart, Soul, and a Voice Year Of Release: 1994 Label: SBK Records Genre: Soul,R&B Quality: MP3 / Joint Stereo Bitrate: 320 kbps / 44. com review : Different kinds of music available to download from files sharing sites like Oboom, Xerver, Uploaded, Rapidgator, Turbobit Mostly for full album download, it display full albums informations such as year of release, label, music genre, quality, bitrate, time duration, album cover photo and more. Мессенджер PrivalSystems, Prival. Quality: FLAC 16 bit / 44. Related Releases: VA - Compost 050 (1998) VA - Future Sounds Of Jazz Vol. cc are shown below. 1K times per month). MP3 FLAC Lossless APE Music Rapidshare MediaFire Megaupload Album Releases Scene Download Jazz Lounge Bossa Chillout World Downtempo Country Soul Meta-description: IsraBox - 150 new music albums every day!. Have fun and enjoy!. 2 and their target audience is IsraBox Music. IsraBox - Music is Life! 1 view this month. 8: Who is Sylvia Year Of Release: 2020 Label: Navona Genre: Classical Quality: flac lossless / flac 24bits - 44. Exclusive music of all genres from around the world. com review : Different kinds of music available to download from files sharing sites like Oboom, Xerver, Uploaded, Rapidgator, Turbobit Mostly for full album download, it display full albums informations such as year of release, label, music genre, quality, bitrate, time duration, album cover photo and more. Artist: Astrud Gilberto Title: Work From Home with Astrud Gilberto Year Of Release: 2020 Label: UMG Recordings, Inc. MP3 FLAC Lossless APE Music Rapidshare MediaFire Megaupload Album Releases Scene Download Jazz Lounge Bossa Chillout World Downtempo Country Soul Meta-description: IsraBox - 150 new music albums every day!. Reddit has thousands of vibrant communities with people that share your interests. IsraBox - 150 new music albums every day!. Werden auch Sie einem der Tausenden zufriedenen Besucher, die Informationen zu Vision Camera, Vision und Media Fire Rar erhielten. 1kHz Total Time: 01:13:32 Total Size: 327 / 651 mb. Artist: Bob James Title: Lucky Seven Year Of Release: 1979/2015 Label: Tappan Zee Records – VICJ-61720 Genre: Smooth Jazz, Jazz-Funk Quality: MP3 320 kbps / FLAC (image +. cc are shown below. cc located in United States that includes israbox and has a. Genre : Rock Release Date : 2018 / 2020 Format : Flac (tracks) Quality : 24bits – 96. Download and listen full album Ab-Soul - Do What Thou Wilt (2016) on IsraBox in high quality [FLAC, Hi-Res, CD-Rip or mp3]. Quality: 320Kbps / Lossless. Mulai dari taruhan judi bola, poker, game slot online, hingga live casino. Мессенджер PrivalSystems, Prival. cue) Bitrate: Lossless Total Time: 00:49:17 Total Size: 291 mb WebSite: amazon. Quality: FLAC (tracks+. Download FLAC Golden Dawn - Still Life 2014 lossless CD, MP3. cue), lossless Страницы: 1 Рок-музыка » Зарубежный Rock » Classic Rock & Hard Rock (lossless). IsraBox - 200 new albums every day! 10 Years! Notice This website or its third-party tools use cookies, which are necessary to its functioning and required to achieve the purposes illustrated in the cookie policy. Password stores only the client itself! Encryption, recommended for military. Original Release Date: 2002. Warning: This site may contain some obscene material or profanity, so we cannot display its news (despite the fact it is visited around 15. 77 GB (FLAC Mch) + 1. net, alllossless. Explorez des nouveautés au quotidien, créez vos propres playlists, partagez vos titres ou albums favoris au sein de la communauté. See related links to what you are looking for. Мессенджер PrivalSystems, Prival. Quality: 320Kbps / Lossless. com is a relatively low-traffic website with approximately 16K visitors monthly, according to Alexa, which gave it a poor rank. com review : Different kinds of music available to download from files sharing sites like Oboom, Xerver, Uploaded, Rapidgator, Turbobit Mostly for full album download, it display full albums informations such as year of release, label, music genre, quality, bitrate, time duration, album cover photo and more. 44 Gb / 553 Mb / 286 Mb + Hi-Res. Copy below URL and spread it at the given pages as reference. Joy Williams - We Mapped The World [EP](2010) Artist: Joy Williams Title Of Album: We Mapped The World [EP] Year Of Release: 2010 Genre: Christian/Alt. com, reggaerecord. Artist: Imelda May Title: Life. Warning: This site may contain some obscene material or profanity, so we cannot display its news (despite the fact it is visited around 15. We've served 25 million Creative Commons-licensed releases and 200 million tracks since 2007. 28 GB Recovery: +3% Scan: yes (cover) Server: rapidgator. 2 and their target audience is IsraBox Music. If israbox. Warning: This site may contain some obscene material or profanity, so we cannot display its news (despite the fact it is visited around 15. The Spacelords. The musical blog IsraBox is a huge collection of musical albums, discographies of groups and artists. Dan Klee - Portraits (2019). com is actually down then you can resolve the issue by doing following:. Artist: Imelda May Title: Life. Rock/Acoustic/Female Vocal Quality: mp3 Bitrate: 256K/s 44100Hz Stereo. Format: MP3 / FLAC. Musical blog IsraBox is a huge collection of musical albums, discographies of groups and artists. info is SAFE to browse. com alternative that is safe or free with 50 of the best like websites that are similar to Israbox. Quality: FLAC (tracks+. 95 and have a daily income of around $ 0. Let your audience know what to hear first. flac" WAVE TRACK 07 AUDIO TITLE "Mama Mercy" REM REPLAYGAIN_TRACK_GAIN -0. Download FLAC Mix Madness - House Lovers 2019 lossless CD, MP3. We found that English is the preferred language on Isra Box pages. Genre: Classical Quality: FLAC (tracks) / 24bit-96kHz FLAC (tracks) Total Time: 01:14:17 Total Size: 327 MB / 1. Take a look and check out additional sites that complement Israbox. Quality: 320Kbps / Lossless. com for safety and security problems. IsraBox - Music is Life! 1 view this month. Download FLAC Nems - Gorilla Monsoon 2019 lossless CD, MP3. cue), lossless Страницы: 1 Электронная музыка » Industrial, Noise, EBM, Dark Electro, Aggrotech, Synthpop, New Wave » Synthpop, Futurepop, New Wave, Electropop (lossless). Mp3, Flac, Lossless, Ape and Rapidshare. So, answer to question: Is israbox Down Right Now? - NO! israbox is up! If you have problem with access to site israbox, and domain israbox. com alternative that is safe or free with 50 of the best like websites that are similar to Israbox. New Age | IsraBox. org, bassandspace. Explorez des nouveautés au quotidien, créez vos propres playlists, partagez vos titres ou albums favoris au sein de la communauté. Dan Klee - Portraits (2019). IsraBox - 150 new music albums every day!. Situs ini berisi pembahasan seputar judi online terbaru dan terlengkap di Indonesia. Password stores only the client itself! Encryption, recommended for military. We specialise in finding the highest quality products regardless of format or genre. 1 Khz Total Time: 56:03 min. Alternatively, find out what’s trending across all of Reddit on r/popular. cc located in United States that includes israbox and has a. 1kHz Total Time: 00:10:47 Total Size: 56. cue, log, full artwork) Total Time: 00:40:52 Total Size: 138. cue, log, scans) / MP3 Total Time: 3:29:51 Total Size: 1. com server?. Password stores only the client itself! Encryption, recommended for military. com review : Different kinds of music available to download from files sharing sites like Oboom, Xerver, Uploaded, Rapidgator, Turbobit Mostly for full album download, it display full albums informations such as year of release, label, music genre, quality, bitrate, time duration, album cover photo and more. com is a completely virtual record label and a secure online store open 7 days a week, 365 days a year. Keywords: rock, itunes, flac, classical, M4A, 2016, MP3, hits, jazz, discography. MP3 FLAC Lossless APE Music Rapidshare MediaFire Megaupload Album Releases Scene Download Jazz Lounge Bossa Chillout World Downtempo Country Soul Meta-description: IsraBox - 150 new music albums every day!. Quality: FLAC (tracks+. The best 3 similar sites: israbox. Password stores only the client itself! Encryption, recommended for military. (showing articles 101 to 120 of 3898) Loading Browse the Latest Snapshot Browsing All Articles (3898 Articles). com, reggaerecord. Download FLAC Mix Madness - House Lovers 2019 lossless CD, MP3. Exclusive music of all genres from around the world. 44 Gb / 553 Mb / 286 Mb + Hi-Res. flac" WAVE TRACK 07 AUDIO TITLE "Mama Mercy" REM REPLAYGAIN_TRACK_GAIN -0. Artist: Imelda May Title: Life. 77 GB (FLAC Mch) + 1. 15-01-2014, 05:53. Download FLAC Nems - Gorilla Monsoon 2019 lossless CD, MP3. November 2017, 16:28 The Corrs / Jupiter Calling Used drive : ATAPI iHBS312 2 Adapter: 1 ID: 2. info is SAFE to browse. cue) Bitrate: Lossless Total Time: 00:49:17 Total Size: 291 mb WebSite: amazon. club informiert die Besucher über Themen wie Best Jazz Albums, Camera Systems und Camera. Artist: Bob James Title: Lucky Seven Year Of Release: 1979/2015 Label: Tappan Zee Records – VICJ-61720 Genre: Smooth Jazz, Jazz-Funk Quality: MP3 320 kbps / FLAC (image +. 1kHz FLAC (tracks) Total Time: 47:19 Total Size: 108 / 232 / 469 MB. 975220 INDEX 01 00:00:00 TRACK 08 AUDIO TITLE "Get In The Sun" REM REPLAYGAIN_TRACK_GAIN -0. download is a web project, safe and generally suitable for all ages. Listen and download tracks and albums. 1kHz FLAC (tracks) Total Time: 47:19 Total Size: 108 / 232 / 469 MB. Performer: Lazar Berman, Alfred Brendel, György Cziffra, Emil Gilels, Vladimir Ovchinikov, Artur Pizarro, Sviatoslav Richter, Earl Wild, Klára Würtz Composer: Franz Liszt Audio CD Number of Discs: 10 CD box set Format: FLAC (tracks+cue) Label: Brilliant Classics Size: 2. Artist: Apparat Title: Capri-Revolution (Apparat Soundtracks 1) Year Of Release: 2020 Label: It's Complicated – 880918 250663 Genre: Ambient Quality: 16bit-44,1kHz FLAC / 24bit-44,1kHz FLAC Total Time: 40:08 Total Size: 200 mb / 392 mb +Hi-RES. Explorez des nouveautés au quotidien, créez vos propres playlists, partagez vos titres ou albums favoris au sein de la communauté. Artist: Various Artists Title: The Many Faces Of Santana: A Journey Through The Inner World Of Santana Year Of Release: 2017 Label: Music Brokers Genre: Jazz, Rock, Latin, Blues Quality: FLAC (image +. Format: MP3 / FLAC. Let your audience know what to hear first. The musical blog IsraBox is a huge collection of musical albums, discographies of groups and artists. Artist: Ulysses String Quartet, Thea Lobo, Vera Savage, Andy Papas, Ryu-Kyung Kim Title: The Shakespeare Concerts Series, Vol. com headlines: Observe fresh posts and updates on Israbox. org, bassandspace. Quality: FLAC (tracks+. cc is a fully qualified domain name for the domain israbox. Exact Audio Copy V1. 1K times per month). com and etc. ch IP Server: 103. cue, log, full artwork) Total Time: 00:40:52 Total Size: 138. Artist: Ulysses String Quartet, Thea Lobo, Vera Savage, Andy Papas, Ryu-Kyung Kim Title: The Shakespeare Concerts Series, Vol. Take a look and check out additional sites that complement Israbox. The best 3 similar sites: israbox. New Age | IsraBox. Download FLAC Nems - Gorilla Monsoon 2019 lossless CD, MP3. Blood Year Of Release: 2017 Label: Time Blues Genre: Pop Rock, Folk, Bluegrass, Soul Quality: FLAC 24bit-96kHz / FLAC (image+. Dan Klee - Portraits (2019). 41 GB (ISO) + 2. 1 Khz Total Time: 56:03 min. Artist: Orchestra Filarmonica della Scala & Riccardo Chailly Title: Cherubini Discoveries Year Of Release: 2016/2020 Label: Decca Music Group Ltd. MP3 FLAC Lossless APE Music Rapidshare MediaFire Megaupload Album Releases Scene Download Jazz Lounge Bossa Chillout World Downtempo Country Soul Meta-description: IsraBox - 150 new music albums every day!. Listen to hundreds of high fidelity Bruce Springsteen concerts from legendary venues. Let your audience know what to hear first. Pda flac on MainKeys. Check site israbox. Customers and visitors can download classical music in high quality FLAC or MP3 and find out more about classical music. Exact Audio Copy V1. Today's Israbox. Welcome to popular music site IsraBox. com, DNS Server: ns1. club informiert die Besucher über Themen wie Best Jazz Albums, Camera Systems und Camera. Listen and download tracks and albums. About Current Outage Q: What to do if problem is at my end? If israbox. 44 Gb / 553 Mb / 286 Mb + Hi-Res. Artist: Shirley Collins Title: Shirley Sings Irish Year Of Release: 2019 Label: RevOla Genre: Blues/Country/Folk, Folk Quality: MP3 320 kbps / FLAC (tracks) / FLAC (tracks) 24bit/44. Quality: FLAC (tracks+. We've served 25 million Creative Commons-licensed releases and 200 million tracks since 2007. A list of blogs and websites that provide music in lossless formats (ape, flac, wav, etc. 8463733047 Domain Status: OK Registry Registrant ID: Registrant Name: Legato LLC Registrant Organization: Legato LLC Registrant Street: Moskovskoe shosse 17, floor 21 Registrant City: Samara Registrant State/Province: Samara Registrant Postal. Welcome to Ektoplazm, the world's #1 source for free and legal psytrance, techno, and downtempo music in MP3, FLAC, and WAV format. 1kHz FLAC (tracks) Total Time: 47:19 Total Size: 108 / 232 / 469 MB. Here about 30 popular APE, Lossless, album, flac sites such as israbox. Alternatively, find out what’s trending across all of Reddit on r/popular. download data below. Artist: Apparat Title: Capri-Revolution (Apparat Soundtracks 1) Year Of Release: 2020 Label: It's Complicated – 880918 250663 Genre: Ambient Quality: 16bit-44,1kHz FLAC / 24bit-44,1kHz FLAC Total Time: 40:08 Total Size: 200 mb / 392 mb +Hi-RES. Artist: Jennifer Nettles Title Of Album: That Girl Year Of Release: 2014 Label: Mercury Nashville Genre: Country, Pop, Singer-Songwriter Quality: 320 / FLAC Total Time: 41:23 min Total Size: 102 / 256 MB. September 2016, 17:29 Tavares / In The City Used drive : GENERIC CDRCB05 Adapter: 1 ID: 1. Мессенджер PrivalSystems, Prival. Moreover, Israbox has yet to grow their social media reach, as it's relatively low at the moment: 459 StumbleUpon views, 261 Twitter mentions and 3 LinkedIn shares. Country music mp3 download. 1 kHz (Tracks) Artist: The Beatles Title: The Beginnings Of The Beatles: From Hamburg To London 1961-1962 Released: 2013 Style: Pop Rock RAR Size: 593 Mb. Password stores only the client itself! Encryption, recommended for military. The homepage lists the Top Albums and also notes “you can download free music albums. 8: Who is Sylvia Year Of Release: 2020 Label: Navona Genre: Classical Quality: flac lossless / flac 24bits - 44. Artist: Paul Jarret feat. IsraBox - Music is Life! пятница, 9 апреля 2010 г. To add a login to this list: register a fake account then share it. Download FLAC Nems - Gorilla Monsoon 2019 lossless CD, MP3. Artist: Bob James Title: Lucky Seven Year Of Release: 1979/2015 Label: Tappan Zee Records - VICJ-61720 Genre: Smooth Jazz, Jazz-Funk Quality: MP3 320 kbps / FLAC (image +. Quality: FLAC (tracks+. Israbox provides users with download access to a broad range of commercially available music. Let your audience know what to hear first. Joy Williams - We Mapped The World [EP](2010) Artist: Joy Williams Title Of Album: We Mapped The World [EP] Year Of Release: 2010 Genre: Christian/Alt. info is a fully qualified domain name for the domain israbox. Warning: This site may contain some obscene material or profanity, so we cannot display its news (despite the fact it is visited around 15. cue, log, full artwork) Total Time: 00:40:52 Total Size: 138. The Beatles - Past Masters (2018) [FLAC] Crosby Stills Nash And Young - American Dream (1988) [FLAC] Donna Summer - The Best Of Donna Summer 20th Century Masters The Millennium Collection (2003) [FLAC] Bob Seger And The Silver Bullet Band - Nine Tonight (1989) [FLAC] Portishead - Dummy (2015) [FLAC]. 8: Who is Sylvia Year Of Release: 2020 Label: Navona Genre: Classical Quality: flac lossless / flac 24bits - 44. Artist: Jon Secada Title Of Album: Heart, Soul, and a Voice Year Of Release: 1994 Label: SBK Records Genre: Soul,R&B Quality: MP3 / Joint Stereo Bitrate: 320 kbps. Download FLAC Golden Dawn - Still Life 2014 lossless CD, MP3. download: visit the most interesting Isra Box pages, well-liked by users from United Kingdom, or check the rest of israbox. IsraBox - Music is Life! 1 view this month. Artist: Michael Houston Title Of Album: Chill 2 This Year Of Release: 2007 Label: Houstown Entertainment Genre: Jazz / Smooth Jazz Format: MP3 Bitrate: VBR ~230 Kbps. The Beatles - Past Masters (2018) [FLAC] Crosby Stills Nash And Young - American Dream (1988) [FLAC] Donna Summer - The Best Of Donna Summer 20th Century Masters The Millennium Collection (2003) [FLAC] Bob Seger And The Silver Bullet Band - Nine Tonight (1989) [FLAC] Portishead - Dummy (2015) [FLAC]. Xoki - Specular (2019). net, alllossless. Artist: Paul Jarret feat. The homepage lists the Top Albums and also notes “you can download free music albums. Password stores only the client itself! Encryption, recommended for military. (showing articles 101 to 120 of 3898) Loading Browse the Latest Snapshot Browsing All Articles (3898 Articles). (New Wave, Synthpop) [CD] Tears For Fears - Rule The World: The Greatest Hits - 2017, FLAC (tracks+. Werden auch Sie einem der Tausenden zufriedenen Besucher, die Informationen zu Vision Camera, Vision und Media Fire Rar erhielten. com review : Different kinds of music available to download from files sharing sites like Oboom, Xerver, Uploaded, Rapidgator, Turbobit Mostly for full album download, it display full albums informations such as year of release, label, music genre, quality, bitrate, time duration, album cover photo and more. (Updated: May 1st, 2020). Pda flac on MainKeys. Size: 102 MB / 288 MB. com (IsraBox. Look at most relevant Reggae flac download websites out of 1. com is actually down then you can resolve the issue by doing following:. The Spacelords. Listen, buy and download tracks and albums!. ZZ Top - The Complete Studio Albums 1970-1990 [HD Tracks] (2013) SinВrееd - Whеn Wоrlds Соllidе [Jараnеsе Еditiоn] (2010 Маstеrрlаn - Тimе То Ве Кing [Jараnеsе Еditiоn] (2010 Оzzу Оsbоurnе - Оrdinаrу Маn [Jараnеsе Еditiоn] (2020 Sаvаtаgе - Still Тhе Оrсhеstrа Рlауs: Grеаtеst Нits [vоl. Musical blog IsraBox is a huge collection of musical albums, discographies of groups and artists. Download or purchase CDs of the entire Live Bruce Springsteen catalog. com is a relatively low-traffic website with approximately 16K visitors monthly, according to Alexa, which gave it a poor rank. 41 GB (ISO) + 2. Learn more. 44 Gb / 553 Mb / 286 Mb + Hi-Res. Password stores only the client itself! Encryption, recommended for military. 975220 INDEX 01 00:00:00 TRACK 08 AUDIO TITLE "Get In The Sun" REM REPLAYGAIN_TRACK_GAIN -0. Password stores only the client itself! Encryption, recommended for military. Soutenez et valorisez les artistes que vous aimez. The Fratellis – Half Drunk Under a Full Moon. Reggae flac download found at israbox. cue,log,scans) / MP3 320 Kbps Total Time: 60:53 Total Size: 1. com, reggaerecord. Joy Williams - We Mapped The World [EP](2010) Artist: Joy Williams Title Of Album: We Mapped The. Artist: Astrud Gilberto Title: Work From Home with Astrud Gilberto Year Of Release: 2020 Label: UMG Recordings, Inc. FLAC ("Free Lossless Audio Codec") shrinks audio files to about half their original size without losing any of the information, a so-called lossless compression. info extension. com Managing Team. 1kHz FLAC (tracks) Total Time: 47:19 Total Size: 108 / 232 / 469 MB. Listen and download tracks and albums. May 6, 2020. To add a login to this list: register a fake account then share it. com (IsraBox. 8: Who is Sylvia Year Of Release: 2020 Label: Navona Genre: Classical Quality: flac lossless / flac 24bits - 44. Oct 1st 2011, 11:27. Complete your collection. com, DNS Server: ns1. Artist: Ulysses String Quartet, Thea Lobo, Vera Savage, Andy Papas, Ryu-Kyung Kim Title: The Shakespeare Concerts Series, Vol. Artist: Jo David Meyer Lysne & Mats Eilertsen Title: Kroksjø Year Of Release: 2020 Label: Hubro Genre: Jazz Quality: Mp3 320 kbps / FLAC (tracks) / 24bit-88. Artist: Various Artists Title: The Many Faces Of Santana: A Journey Through The Inner World Of Santana Year Of Release: 2017 Label: Music Brokers Genre: Jazz, Rock, Latin, Blues Quality: FLAC (image +. ch IP Server: 103. 238, HostName: lb-182-238. Artist: Astrud Gilberto Title: Work From Home with Astrud Gilberto Year Of Release: 2020 Label: UMG Recordings, Inc. Here about 30 popular APE, Lossless, album, flac sites such as israbox. February 15, 2020. info is SAFE to browse. September 2016 EAC extraction logfile from 12. Password stores only the client itself! Encryption, recommended for military. Reggae flac download found at israbox. Total Size: 4. cc is a fully qualified domain name for the domain israbox. 15-01-2014, 05:53. ch IP Server: 103. net, alllossless. Artist: Aqualise Title: Nightwaves Year Of Release: 2011 Label: Aqualise Music Genre: Downtempo / Chill Out Quality: FLAC (tracks) / MP3 Total Time: 48:05 min Total Size: 293 MB / 109 MB 28-03-2016, 11:30. Welcome to popular music site IsraBox. Reddit is also anonymous so you can be yourself, with your Reddit profile and persona disconnected from your real-world identity. 17 GB (FLAC Stereo) | 3% RAR Recovery Label: Deutsche Grammophon | EU | Cat#: 471 634-2 | Genre: Classical The idea of John Eliot Gardiner not only doing Holst's The Planets, but doing it so effectively, shouldn't have come as a surprise, considering his broad musical culture and the. org,Winamp Forums,IsraBox - Music blog, mp-3, music news, download new music. Report adult content: click to rate: Account: (). download at WI. Here about 30 popular APE, Lossless, album, flac sites such as israbox. Exclusive releases and albums of various styles and music genres in high quality are available to you to listen, buy and download. Today's Israbox. Exact Audio Copy V1. com headlines: Observe fresh posts and updates on Israbox. 995148 INDEX 00 02:47:30 FILE "08 Joan Armatrading - Get In The Sun. 3 GB / 573 MB. info extension. 1kHz Total Time: 01:13:32 Total Size: 327 / 651 mb. See posts, photos and more on Facebook. Country music mp3 download. Moreover, Israbox has yet to grow their social media reach, as it's relatively low at the moment: 459 StumbleUpon views, 261 Twitter mentions and 3 LinkedIn shares. Registrar IANA ID: 1362 Registrar Abuse Contact Email: @regtime. com alternative that is safe or free with 50 of the best like websites that are similar to Israbox. Password stores only the client itself! Encryption, recommended for military. 1 kHz (Tracks) Artist: The Beatles Title: The Beginnings Of The Beatles: From Hamburg To London 1961-1962 Released: 2013 Style: Pop Rock RAR Size: 593 Mb. Artist: Various Artists Title: The Many Faces Of Santana: A Journey Through The Inner World Of Santana Year Of Release: 2017 Label: Music Brokers Genre: Jazz, Rock, Latin, Blues Quality: FLAC (image +. Moreover, Israbox has yet to grow their social media reach, as it’s relatively low at the moment: 459 StumbleUpon views, 261 Twitter mentions and 3 LinkedIn shares. Exclusive music of all genres from around the world. 12 Popular Sites Like Israbox Our team has searched the web and found a lot of of the best music and mp3 sites like Israbox. Artist: Various Artists Title: The Many Faces Of Santana: A Journey Through The Inner World Of Santana Year Of Release: 2017 Label: Music Brokers Genre: Jazz, Rock, Latin, Blues Quality: FLAC (image +. See related links to what you are looking for. Here about 30 popular APE, Lossless, album, flac sites such as israbox. Genre: Classical Quality: FLAC (tracks) / 24bit-96kHz FLAC (tracks) Total Time: 01:14:17 Total Size: 327 MB / 1. Password stores only the client itself! Encryption, recommended for military. (showing articles 101 to 120 of 3898) Loading Browse the Latest Snapshot Browsing All Articles (3898 Articles). net Registrar Abuse Contact Phone: +7. Listen, buy and download tracks and albums! Keywords: riot fire down under, blues traveler discography, Ambient Realms, band maid flac, 8 bit monk. Rock/Acoustic/Female Vocal Quality: mp3 Bitrate: 256K/s 44100Hz Stereo. Artist: Apparat Title: Capri-Revolution (Apparat Soundtracks 1) Year Of Release: 2020 Label: It's Complicated - 880918 250663 Genre: Ambient Quality: 16bit-44,1kHz FLAC / 24bit-44,1kHz FLAC Total Time: 40:08 Total Size: 200 mb / 392 mb +Hi-RES. Download FLAC Run The Jewels - Run The Jewels 2014 lossless CD, MP3. Listen, buy and download tracks and albums!. 1kHz FLAC (tracks) Total Time: 47:19 Total Size: 108 / 232 / 469 MB. 1K times per month). be information at Website Informer. Musical blog IsraBox is a huge collection of musical albums, discographies of groups and artists. cue) Bitrate: Lossless Total Time: 00:49:17 Total Size: 291 mb WebSite: amazon. About Current Outage Q: What to do if problem is at my end? If israbox. We present new items of music and the hot hits for information. Contact israbox. New Age | IsraBox. So, answer to question: Is israbox Down Right Now? - NO! israbox is up! If you have problem with access to site israbox, and domain israbox. Check site israbox. Toad (4) - Rarities - CD - 1992 - Switzerland - Hard Rock - flac - Aurophon - CD AU 32111 5 weeks ago ATITUDE ROCK'N'ROLL divulga a cultura rock e novas bandas. See posts, photos and more on Facebook. About Current Outage Q: What to do if problem is at my end? If israbox. Мессенджер PrivalSystems, Prival. com Managing Team. 1 kHz (Tracks) Artist: The Beatles Title: The Beginnings Of The Beatles: From Hamburg To London 1961-1962 Released: 2013 Style: Pop Rock RAR Size: 593 Mb. Read More. Quality: FLAC (tracks+. IsraBox music - exclusive of all music genres from around the world. We specialise in finding the highest quality products regardless of format or genre. Israbox Reggae Israbox Reggae. Password stores only the client itself! Encryption, recommended for military. Israbox Reggae Israbox Reggae. download uses Nginx for server. com? I have been trying for a Chet Atkins music collection for the last few days. com (IsraBox. com headlines: Observe fresh posts and updates on Israbox. info is SAFE to browse. Welcome to popular music site IsraBox. Artist: Ulysses String Quartet, Thea Lobo, Vera Savage, Andy Papas, Ryu-Kyung Kim Title: The Shakespeare Concerts Series, Vol. Contact israbox. The best 3 similar sites: israbox. Download and listen full album Ab-Soul - Do What Thou Wilt (2016) on IsraBox in high quality [FLAC, Hi-Res, CD-Rip or mp3]. Listen to hundreds of high fidelity Bruce Springsteen concerts from legendary venues. Total Size: 4. By admin flac-music 2020, Hi. Welcome to Ektoplazm, the world's #1 source for free and legal psytrance, techno, and downtempo music in MP3, FLAC, and WAV format. Artist: Michael Houston Title Of Album: Chill 2 This Year Of Release: 2007 Label: Houstown Entertainment Genre: Jazz / Smooth Jazz Format: MP3 Bitrate: VBR ~230 Kbps Tracks: 15 Total Time: 01:08:50. Artist: The Stepkids Title Of Album: The Stepkids Year Of Release: September 27, 2011 Label: Stones Throw Records Genre: Indie, Funk, Psych-Soul Quality: flac (tracks) Bitrate: lossless Total Time: 31 min 05 sec Total Size. 15-01-2014, 05:53. ZZ Top - The Complete Studio Albums 1970-1990 [HD Tracks] (2013) SinВrееd - Whеn Wоrlds Соllidе [Jараnеsе Еditiоn] (2010 Маstеrрlаn - Тimе То Ве Кing [Jараnеsе Еditiоn] (2010. Advanced stats about www. Exclusive music of all genres from around the world. Artist: Astrud Gilberto Title: Work From Home with Astrud Gilberto Year Of Release: 2020 Label: UMG Recordings, Inc. A list of blogs and websites that provide music in lossless formats (ape, flac, wav, etc. IsraBox - Music is Life! пятница, 9 апреля 2010 г. com headlines: Observe fresh posts and updates on Israbox. org,Winamp Forums,IsraBox - Music blog, mp-3, music news, download new music. 41 GB (ISO) + 2. Password stores only the client itself! Encryption, recommended for military. cc located in United States that includes israbox and has a. Registrar IANA ID: 1362 Registrar Abuse Contact Email: @regtime. Ecoutez et téléchargez gratuitement la musique de milliers d'artistes indépendants. Мессенджер PrivalSystems, Prival. info are shown below. A list of blogs and websites that provide music in lossless formats (ape, flac, wav, etc. Artist: Jo David Meyer Lysne & Mats Eilertsen Title: Kroksjø Year Of Release: 2020 Label: Hubro Genre: Jazz Quality: Mp3 320 kbps / FLAC (tracks) / 24bit-88. Help your audience discover your sounds. Pda flac on MainKeys. The musical blog IsraBox is a huge collection of musical albums, discographies of groups and artists. Total Size: 4. Artist: Apparat Title: Capri-Revolution (Apparat Soundtracks 1) Year Of Release: 2020 Label: It's Complicated - 880918 250663 Genre: Ambient Quality: 16bit-44,1kHz FLAC / 24bit-44,1kHz FLAC Total Time: 40:08 Total Size: 200 mb / 392 mb +Hi-RES. Genre : Rock Release Date : 2018 / 2020 Format : Flac (tracks) Quality : 24bits – 96. Total Size: 4. Here about 30 popular APE, Lossless, album, flac sites such as israbox. Exclusive music of all genres from around the world. The musical blog IsraBox is a huge collection of musical albums, discographies of groups and artists. FLAC ("Free Lossless Audio Codec") shrinks audio files to about half their original size without losing any of the information, a so-called lossless compression. com review : Different kinds of music available to download from files sharing sites like Oboom, Xerver, Uploaded, Rapidgator, Turbobit Mostly for full album download, it display full albums informations such as year of release, label, music genre, quality, bitrate, time duration, album cover photo and more. Listen and download tracks and albums. Today's Israbox. Мессенджер PrivalSystems, Prival. Artist: Paul Jarret feat. 238, HostName: lb-182-238. This website is estimated worth of $ 8. 29 dB REM REPLAYGAIN_TRACK_PEAK 0. 95 and have a daily income of around $ 0. Their server software is running on nginx/1. org, bassandspace. IsraBox - Music is Life! пятница, 9 апреля 2010 г. 41 GB (ISO) + 2. Read More. info is a fully qualified domain name for the domain israbox. Find Customer Reviews and Ratings of Israbox. Warning: This site may contain some obscene material or profanity, so we cannot display its news (despite the fact it is visited around 15. Artist: Hugo Manuel Title: The Starlight Night Year Of Release: 2020 Label: Self Genre: Ambient Quality: 16bit-44,1kHz FLAC / 24bit-96kHz FLAC Total Time: 01:08:03 Total Size: 322 mb / 1,2 gb Yesterday, 00:01. Мессенджер PrivalSystems, Prival. Copy below URL and spread it at the given pages as reference. Exclusive releases and albums of various styles and music genres in high quality are available to you to listen, buy and download. IsraBox music - exclusive of all music genres from around the world. (New Wave, Synthpop) [CD] Tears For Fears - Rule The World: The Greatest Hits - 2017, FLAC (tracks+. Artist: Orchestra Filarmonica della Scala & Riccardo Chailly Title: Cherubini Discoveries Year Of Release: 2016/2020 Label: Decca Music Group Ltd. 1kHz FLAC; 24-bit/44. Moreover, Israbox has yet to grow their social media reach, as it's relatively low at the moment: 459 StumbleUpon views, 261 Twitter mentions and 3 LinkedIn shares. cue, log, scans) / MP3 Total Time: 3:29:51 Total Size: 1. Report adult content: click to rate: Account: (). Artist: Astrud Gilberto Title: Work From Home with Astrud Gilberto Year Of Release: 2020 Label: UMG Recordings, Inc. (Updated: May 1st, 2020). Password stores only the client itself! Encryption, recommended for military. As no active threats were reported recently by users, israbox. 1 Khz Total Time: 56:03 min. Artist: Imelda May Title: Life. We specialise in finding the highest quality products regardless of format or genre. Artist: Miles Davis Title: Music From and Inspired by The Film Birth Of The Cool (Remastered) Year Of Release: 2020 Label: Columbia/Legacy Genre: Jazz Quality: Mp3 320 kbps / FLAC (tracks) / 24bit-48kHz FLAC (tracks) Total Time: 01:19:31 Total Size: 185 / 429 / 880 MB. We've served 25 million Creative Commons-licensed releases and 200 million tracks since 2007. Artist: Imelda May Title: Life. 28 GB Recovery: +3% Scan: yes (cover) Server: rapidgator. Bleep - We sell the best music from the best record labels and artists in the world. Copy below URL and spread it at the given pages as reference. Alternatively, find out what’s trending across all of Reddit on r/popular. 975220 INDEX 01 00:00:00 TRACK 08 AUDIO TITLE "Get In The Sun" REM REPLAYGAIN_TRACK_GAIN -0. cue,scans) Bitrate: Lossless Total Time: 00:48:29 On IsraBox you can listen music for review is also you can download music albums. Moreover, Israbox has yet to grow their social media reach, as it's relatively low at the moment: 459 StumbleUpon views, 261 Twitter mentions and 3 LinkedIn shares. IsraBox - Music is Life! пятница, 9 апреля 2010 г. Soutenez et valorisez les artistes que vous aimez. Exclusive music of all genres from around the world. Password stores only the client itself! Encryption, recommended for military. com is up actually and appears down only for you then follow these troubleshooting steps or you can search for an alternative. New Age | IsraBox. Listen, buy and download tracks and albums!. Download FLAC Nems - Gorilla Monsoon 2019 lossless CD, MP3. Artist: Aqualise Title: Nightwaves Year Of Release: 2011 Label: Aqualise Music Genre: Downtempo / Chill Out Quality: FLAC (tracks) / MP3 Total Time: 48:05 min Total Size: 293 MB / 109 MB 28-03-2016, 11:30. Quality: FLAC 16 bit / 44. Mulai dari taruhan judi bola, poker, game slot online, hingga live casino. Exclusive music of all genres from around the world. Quality: FLAC (tracks+. A list of blogs and websites that provide music in lossless formats (ape, flac, wav, etc. Reddit is also anonymous so you can be yourself, with your Reddit profile and persona disconnected from your real-world identity. Download and listen full album Ab-Soul - Do What Thou Wilt (2016) on IsraBox in high quality [FLAC, Hi-Res, CD-Rip or mp3]. Welcome to popular music site IsraBox. About Current Outage Q: What to do if problem is at my end? If israbox. com is a relatively low-traffic website with approximately 16K visitors monthly, according to Alexa, which gave it a poor rank. com, DNS Server: ns1. Each time one clicks the download. 5 Million at KeywordSpace. IsraBox - 150 new music albums every day!. Reggae flac download found at israbox. Access and share logins for israbox. Stop pulling out your hair! If israbox. 44 Gb / 553 Mb / 286 Mb + Hi-Res. com is a completely virtual record label and a secure online store open 7 days a week, 365 days a year. Size: 102 MB / 288 MB. club informiert die Besucher über Themen wie Best Jazz Albums, Camera Systems und Camera. Total Size: 4. Artist: Ulysses String Quartet, Thea Lobo, Vera Savage, Andy Papas, Ryu-Kyung Kim Title: The Shakespeare Concerts Series, Vol. Listen, buy and download tracks and albums! Keywords: riot fire down under, blues traveler discography, Ambient Realms, band maid flac, 8 bit monk. The Jezabels - Prisoner [2CD] (2011) Flac -> DOWNLOAD 5f91d47415 The Jezabels - Prisoner at DiscogsFind a The Jezabels - Prisoner first pressing or reissue. Мессенджер PrivalSystems, Prival. MP3 FLAC Lossless APE Music Rapidshare MediaFire Megaupload Album Releases Scene Download Jazz Lounge Bossa Chillout World Downtempo Country Soul Meta-description: IsraBox - 150 new music albums every day!. Hannah Tolf, Éléonore Billy & Étienne Renard Title: Emma Year Of Release: 2020 Label: Neuklang Genre: Jazz Quality: Mp3 320 kbps / FLAC (tracks) / 24bit-44. By admin flac-music 2020, Hi. Quality: FLAC (tracks+. 8463733047 Domain Status: OK Registry Registrant ID: Registrant Name: Legato LLC Registrant Organization: Legato LLC Registrant Street: Moskovskoe shosse 17, floor 21 Registrant City: Samara Registrant State/Province: Samara Registrant Postal. Download or purchase CDs of the entire Live Bruce Springsteen catalog. 1kHz Total Time: 01:13:32 Total Size: 327 / 651 mb. Password stores only the client itself! Encryption, recommended for military. cc extension. Listen and download tracks and albums. Artist: Paul Jarret feat. Download and listen full album Ab-Soul - Do What Thou Wilt (2016) on IsraBox in high quality [FLAC, Hi-Res, CD-Rip or mp3]. Size: 102 MB / 288 MB. 41 GB (ISO) + 2. 1 Khz Total Time: 56:03 min. We present new items of music and the hot hits for information. 995148 INDEX 00 02:47:30 FILE "08 Joan Armatrading - Get In The Sun. com, reggaerecord. Click here for more information about Israbox. Quality: 320Kbps / Lossless. Download FLAC Run The Jewels - Run The Jewels 2014 lossless CD, MP3. Genre : Rock Release Date : 2018 / 2020 Format : Flac (tracks) Quality : 24bits – 96. info extension. New Age | IsraBox. Have fun and enjoy!. Мессенджер PrivalSystems, Prival. MP3 FLAC Lossless APE Music Rapidshare MediaFire Megaupload Album Releases Scene Download Jazz Lounge Bossa Chillout World Downtempo Country Soul Meta-description: IsraBox - 150 new music albums every day!. Password stores only the client itself! Encryption, recommended for military. 77 GB (FLAC Mch) + 1. com isn't working, try communicating over the issues with them, directly. Werden auch Sie einem der Tausenden zufriedenen Besucher, die Informationen zu Vision Camera, Vision und Media Fire Rar erhielten. ZZ Top - The Complete Studio Albums 1970-1990 [HD Tracks] (2013) SinВrееd - Whеn Wоrlds Соllidе [Jараnеsе Еditiоn] (2010 Маstеrрlаn - Тimе То Ве Кing [Jараnеsе Еditiоn] (2010 Оzzу Оsbоurnе - Оrdinаrу Маn [Jараnеsе Еditiоn] (2020 Sаvаtаgе - Still Тhе Оrсhеstrа Рlауs: Grеаtеst Нits [vоl. org,Winamp Forums,IsraBox - Music blog, mp-3, music news, download new music. Moreover, Israbox has yet to grow their social media reach, as it's relatively low at the moment: 459 StumbleUpon views, 261 Twitter mentions and 3 LinkedIn shares. 1 Khz Total Time: 56:03 min. Wait for the site going up again. cue), lossless Страницы: 1 Рок-музыка » Зарубежный Rock » Classic Rock & Hard Rock (lossless). com is actually down then you can resolve the issue by doing following:. Does anyone have experience of Downloading MP3 music files from www. cue, log, scans) / MP3 Total Time: 3:29:51 Total Size: 1. Genre : Rock Release Date : 2018 / 2020 Format : Flac (tracks) Quality : 24bits – 96. Hannah Tolf, Éléonore Billy & Étienne Renard Title: Emma Year Of Release: 2020 Label: Neuklang Genre: Jazz Quality: Mp3 320 kbps / FLAC (tracks) / 24bit-44. Pda flac on MainKeys. See posts, photos and more on Facebook. Listen and download tracks and albums. net, alllossless. Artist: Astrud Gilberto Title: Work From Home with Astrud Gilberto Year Of Release: 2020 Label: UMG Recordings, Inc. Quality: 320Kbps / Lossless. Reggae flac download found at israbox. Password stores only the client itself! Encryption, recommended for military. ch IP Server: 103. Artist: Jon Secada Title Of Album: Heart, Soul, and a Voice Year Of Release: 1994 Label: SBK Records Genre: Soul,R&B Quality: MP3 / Joint Stereo Bitrate: 320 kbps / 44. com Managing Team. The Spacelords. com is a relatively low-traffic website with approximately 16K visitors monthly, according to Alexa, which gave it a poor rank. The musical blog IsraBox is a huge collection of musical albums, discographies of groups and artists. Password stores only the client itself! Encryption, recommended for military. Format: MP3 / FLAC. Мессенджер PrivalSystems, Prival. com is not avalible. Artist: Ulysses String Quartet, Thea Lobo, Vera Savage, Andy Papas, Ryu-Kyung Kim Title: The Shakespeare Concerts Series, Vol. Artist: Jon Secada Title Of Album: Heart, Soul, and a Voice Year Of Release: 1994 Label: SBK Records Genre: Soul,R&B Quality: MP3 / Joint Stereo Bitrate: 320 kbps. Exclusive music of all genres from around the world. Artist: Shirley Collins Title: Shirley Sings Irish Year Of Release: 2019 Label: RevOla Genre: Blues/Country/Folk, Folk Quality: MP3 320 kbps / FLAC (tracks) / FLAC (tracks) 24bit/44. Help your audience discover your sounds. com (IsraBox. Soutenez et valorisez les artistes que vous aimez. Artist: Paul Jarret feat. 1kHz FLAC (tracks) Total Time: 47:19 Total Size: 108 / 232 / 469 MB. Joy Williams - We Mapped The World [EP](2010) Artist: Joy Williams Title Of Album: We Mapped The World [EP] Year Of Release: 2010 Genre: Christian/Alt. 238, HostName: lb-182-238. Today's Israbox. 15-01-2014, 05:53. This website is estimated worth of $ 8. Мессенджер PrivalSystems, Prival. Israbox Reggae Israbox Reggae. The Jezabels - Prisoner [2CD] (2011) Flac -> DOWNLOAD 5f91d47415 The Jezabels - Prisoner at DiscogsFind a The Jezabels - Prisoner first pressing or reissue. Artist: Jo David Meyer Lysne & Mats Eilertsen Title: Kroksjø Year Of Release: 2020 Label: Hubro Genre: Jazz Quality: Mp3 320 kbps / FLAC (tracks) / 24bit-88. 77 GB (FLAC Mch) + 1. Each time one clicks the download. Exclusive music of all genres from around the world. Mulai dari taruhan judi bola, poker, game slot online, hingga live casino. Artist: Jhené Aiko Title: Souled Out Year Of Release: 2015 Label: Def Jam Recordings Genre: Soul, R&B Quality: 16-bit/44. flac" WAVE TRACK 07 AUDIO TITLE "Mama Mercy" REM REPLAYGAIN_TRACK_GAIN -0. 58 dB REM REPLAYGAIN_TRACK_PEAK 0. info are shown below. com is a relatively low-traffic website with approximately 16K visitors monthly, according to Alexa, which gave it a poor rank. ZZ Top - The Complete Studio Albums 1970-1990 [HD Tracks] (2013) SinВrееd - Whеn Wоrlds Соllidе [Jараnеsе Еditiоn] (2010 Маstеrрlаn - Тimе То Ве Кing [Jараnеsе Еditiоn] (2010. The Norton rating is a result of NortonLifeLock's automated analysis system. Exclusive music of all genres from around the world. Мессенджер PrivalSystems, Prival. 238, HostName: lb-182-238. com alternative that is safe or free with 50 of the best like websites that are similar to Israbox. Listen to hundreds of high fidelity Bruce Springsteen concerts from legendary venues. Password stores only the client itself! Encryption, recommended for military. com for safety and security problems. 29 dB REM REPLAYGAIN_TRACK_PEAK 0. Alternatively, find out what’s trending across all of Reddit on r/popular. Genre: Jazz, Vocal Jazz, Bossa Nova Quality: mp3 320 kbps / flac lossless Total Time: 01:36:48 Total Size: 226 / 575 mb. Artist: Jennifer Nettles Title Of Album: That Girl Year Of Release: 2014 Label: Mercury Nashville Genre: Country, Pop, Singer-Songwriter Quality: 320 / FLAC Total Time: 41:23 min Total Size: 102 / 256 MB. com headlines: Observe fresh posts and updates on Israbox. com review : Different kinds of music available to download from files sharing sites like Oboom, Xerver, Uploaded, Rapidgator, Turbobit Mostly for full album download, it display full albums informations such as year of release, label, music genre, quality, bitrate, time duration, album cover photo and more. Situs ini berisi pembahasan seputar judi online terbaru dan terlengkap di Indonesia. 2kHz FLAC (tracks) Total Time: 32:12 Total Size: 75 / 126 / 536 MB. Ektoplazm Free Music Portal. Genre : Alternative Release Date : 2020 Format : Flac (tracks) Quality : Lossless. So, answer to question: Is israbox Down Right Now? - NO! israbox is up! If you have problem with access to site israbox, and domain israbox. Israbox review. Download FLAC Nems - Gorilla Monsoon 2019 lossless CD, MP3. Look at most relevant Reggae flac download websites out of 1. IsraBox - Music is Life! 1 view this month. The homepage lists the Top Albums and also notes “you can download free music albums. Alternatively, find out what’s trending across all of Reddit on r/popular. Artist: Jo David Meyer Lysne & Mats Eilertsen Title: Kroksjø Year Of Release: 2020 Label: Hubro Genre: Jazz Quality: Mp3 320 kbps / FLAC (tracks) / 24bit-88. About Current Outage Q: What to do if problem is at my end? If israbox. Genre: Classical Quality: FLAC (tracks) / 24bit-96kHz FLAC (tracks) Total Time: 01:14:17 Total Size: 327 MB / 1. Artist: Paul Jarret feat. So, answer to question: Is israbox Down Right Now? - NO! israbox is up! If you have problem with access to site israbox, and domain israbox. Mulai dari taruhan judi bola, poker, game slot online, hingga live casino. ZZ Top - The Complete Studio Albums 1970-1990 [HD Tracks] (2013) SinВrееd - Whеn Wоrlds Соllidе [Jараnеsе Еditiоn] (2010 Маstеrрlаn - Тimе То Ве Кing [Jараnеsе Еditiоn] (2010 Оzzу Оsbоurnе - Оrdinаrу Маn [Jараnеsе Еditiоn] (2020 Sаvаtаgе - Still Тhе Оrсhеstrа Рlауs: Grеаtеst Нits [vоl. The Equatorial Group - Apricity (2018) Hi-Res | IsraBox Year Of Release: Label: Equatorial Music Genre: Folk Rock, Country Quality: Mp3 320 kbps / FLAC (tracks) / 24bit-48kHz FLAC (tracks) Total Time: 47:24. IsraBox - Music is Life! пятница, 9 апреля 2010 г. Artist: Various Artists Title: Soul Jazz Records Presents Hustle! Reggae Disco - Kingston, London, New York Year Of Release: 2017 Label: Soul Jazz Records [SJR CD368] Genre: Reggae, Disco, Soul Jazz Quality: 320 kbps / FLAC (tracks+cue, log) Total Time: 1:16:30 Total Size: 175 mb / 485 mb #Re-Up. IsraBox - 150 new music albums every day!. com is a relatively low-traffic website with approximately 16K visitors monthly, according to Alexa, which gave it a poor rank. Мессенджер PrivalSystems, Prival. download uses Nginx for server. com review : Different kinds of music available to download from files sharing sites like Oboom, Xerver, Uploaded, Rapidgator, Turbobit Mostly for full album download, it display full albums informations such as year of release, label, music genre, quality, bitrate, time duration, album cover photo and more. The Jezabels - Prisoner [2CD] (2011) Flac -> DOWNLOAD 5f91d47415 The Jezabels - Prisoner at DiscogsFind a The Jezabels - Prisoner first pressing or reissue. MP3 FLAC Lossless APE Music Rapidshare MediaFire Megaupload Album Releases Scene Download Jazz Lounge Bossa Chillout World Downtempo Country Soul Meta-description: IsraBox - 150 new music albums every day!. Artist: Apparat Title: Capri-Revolution (Apparat Soundtracks 1) Year Of Release: 2020 Label: It's Complicated - 880918 250663 Genre: Ambient Quality: 16bit-44,1kHz FLAC / 24bit-44,1kHz FLAC Total Time: 40:08 Total Size: 200 mb / 392 mb +Hi-RES. Soutenez et valorisez les artistes que vous aimez.